Mediterranean with Simon Reeve S01E03 (1280x720p HD, 50fps, soft ...

seeders: 8
leechers: 0
updated:
Added by ElsonRoa in Other


[ LIMITED VPN OFFER ]
strongly advises you to use NordVPN while downloading torrents.
NordVPN is the safest VPN on the market, and the fastest VPN as well.
No IP Log is saved using NordVPN, avoid other VPN providers and choose the safest one.
Click here and buy NordVPN it's on rebates today!
We were able to verify your IP: 193.32.87.225, country: Unknown error type: [8] Undefined variable: city
string 'k.php' (length=5)
int 152
.
If we can do that, others can too, protect your privacy with NordVPN.
is trying the best for you!
[ LIMITED VPN OFFER ]


Description

Mediterranean with Simon Reeve S01E03 (1280x720p HD, 50fps, soft Eng subs) 

Simon Reeve embarks on the third leg of his epic four-part journey around the Mediterranean. He begins in Libya - a country well off the tourist trail and torn apart by revolution, insurgents from the so-called Islamic State and western air strikes. Simon visits the Mediterranean city of Sirte, which has been the scene of heavy fighting. Here Simon witnesses some of the worst destruction he has ever seen, with entire neighbourhoods of the city completely flattened. He also visits the remains of Leptis Magna - one of the world's best-preserved Roman cities which many feared could fall into the hands of IS - and meets the young volunteers who risked their lives to protect it. 

Travelling west along north Africa's Mediterranean coast, Simon arrives in Tunisia, a country that - unlike its neighbour - has long been a tourist destination. He travels to the spectacular fortress village of Chenini, where houses were carved into the mountain by the Amazigh - better known as the Berbers. Today Berbers are a small minority in Tunisia, but Simon finds one man who is keeping the traditions alive by harnessing camel power to make olive oil and excavating rock by hand to build new Berber homes. 

From Tunisia, Simon boards the overnight ferry to the island famous as home to the mafia, Sicily. In recent years, a government crackdown and public rebellion has substantially weakened the mafia's grip on the island, but in the countryside there are worrying signs of a comeback. The mafia is trying to take advantage of rural Sicily's population decline, but Simon soon discovers that migrants and refugees who have travelled across the Mediterranean to Europe are finding new homes in Italy's emptying villages. Simon meets three inspiring sisters who - despite constant intimidation, including the skinning of their much-loved dog - are making a defiant stand against the mafia.

First broadcast: 21 October 2018
Duration: 1 hour

Torrent dead? Request reseed at demonoid.pw, 1337x.to or katcr.co - or ask at [email protected] 

 

Media info:-
General
Format : MPEG-4
Format profile : Base Media
Codec ID : isom (isom/iso2/avc1/mp41)
File size : 2.20 GiB
Duration : 58mn 38s
Overall bit rate mode : Variable
Overall bit rate : 5 378 Kbps
Writing application : Lavf57.83.100 

Video
ID : 1
Format : AVC
Format/Info : Advanced Video Codec
Format profile : [email protected] 
Format settings, CABAC : Yes
Format settings, ReFrames : 4 frames
Codec ID : avc1
Codec ID/Info : Advanced Video Coding
Duration : 58mn 38s
Bit rate : 5 053 Kbps
Width : 1 280 pixels
Height : 720 pixels
Display aspect ratio : 16:9
Frame rate mode : Constant
Frame rate : 50.000 fps
Color space : YUV
Chroma subsampling : 4:2:0
Bit depth : 8 bits
Scan type : Progressive
Bits/(Pixel*Frame) : 0.110
Stream size : 2.07 GiB (94%)
Encoded date : UTC 1904-01-01 00:00:00
Tagged date : UTC 1904-01-01 00:00:00
Color range : Limited
Color primaries : BT.709
Transfer characteristics : BT.709
Matrix coefficients : BT.709

Audio
ID : 2
Format : AAC
Format/Info : Advanced Audio Codec
Format profile : LC
Codec ID : 40
Duration : 58mn 38s
Bit rate mode : Variable
Bit rate : 320 Kbps
Channel(s) : 2 channels
Channel positions : Front: L R
Sampling rate : 48.0 KHz
Frame rate : 46.875 fps (1024 spf)
Compression mode : Lossy
Stream size : 133 MiB (6%)
Language : English


Sharing Widget


Download torrent
Size: 2.2 GB
seeders:8
leechers:0
Mediterranean with Simon Reeve S01E03 (1280x720p HD, 50fps, soft ... - (2362232012 Bytes)



To share this torrent use the code below and insert it into comments, status messages, forum posts or your signature.

Torrent: Mediterranean with Simon Reeve S01E03 (1280x720p HD, 50fps, soft ...

Trackers

tracker name
udp://tracker.leechers-paradise.org:6969/announce
udp://tracker.coppersurfer.tk:6969/announce
udp://tracker.opentrackr.org:1337/announce
udp://tracker.zer0day.to:1337/announce
udp://eddie4.nl:6969/announce
udp://inferno.demonoid.pw:3391/announce
udp://tracker.zer0day.to:1337/announce
udp://tracker.leechers-paradise.org:6969/announce
udp://coppersurfer.tk:6969/announce
ĀµTorrent compatible trackers list

Locations

name
KickassTorrents
Torrent hash: 1F2243F753712B1F82C635376778FA515D04887C

[ LIMITED VPN OFFER ]
strongly advises you to use NordVPN while downloading torrents.
NordVPN is the safest VPN on the market, and the fastest VPN as well.
No IP Log is saved using NordVPN, avoid other VPN providers and choose the safest one.
Click here and buy NordVPN it's on rebates today!
We were able to verify your IP: 193.32.87.225, country: Unknown error type: [8] Undefined variable: city
string 'single.php' (length=10)
int 269
.
If we can do that, others can too, protect your privacy with NordVPN.
is trying the best for you!
[ LIMITED VPN OFFER ]


All Comments

*comments box temporarily disabled*
Report a bug